shadowbox

Collapse

Announcement

Collapse
No announcement yet.

Appatlo Okadundevadu (2016) Telugu - 700MB - 1CDRip - CAMRip - x264 - MP3-TMV

Collapse
X
  • Filter
  • Time
  • Show
Clear All
new posts

  • Appatlo Okadundevadu (2016) Telugu - 700MB - 1CDRip - CAMRip - x264 - MP3-TMV

    Code:
    General Format                                   : Matroska Format version                           : Version 4 / Version 2 File size                                : 692 MiB Duration                                 : 1 h 58 min Overall bit rate mode                    : Variable Overall bit rate                         : 814 kb/s Movie name                               : www.TamilMv.Org Encoded date                             : UTC 2017-01-10 09:13:13 Writing application                      : mkvmerge v7.0.0 ('Where We Going') 32bit built on Jun  9 2014 15:08:34 Writing library                          : libebml v1.3.0 + libmatroska v1.4.1  Video ID                                       : 1 Format                                   : AVC Format/Info                              : Advanced Video Codec Format profile                           : [email protected] Format settings, CABAC                   : Yes Format settings, ReFrames                : 4 frames Codec ID                                 : V_MPEG4/ISO/AVC Duration                                 : 1 h 58 min Bit rate                                 : 718 kb/s Width                                    : 720 pixels Height                                   : 312 pixels Display aspect ratio                     : 2.35:1 Frame rate mode                          : Constant Frame rate                               : 30.000 FPS Color space                              : YUV Chroma subsampling                       : 4:2:0 Bit depth                                : 8 bits Scan type                                : Progressive Bits/(Pixel*Frame)                       : 0.107 Stream size                              : 610 MiB (88%) Title                                    : www.TamilMv.Org Writing library                          : x264 core 148 r2638 7599210 Encoding settings                        : cabac=1 / ref=3 / deblock=1:0:0 / analyse=0x3:0x113 / me=hex / subme=7 / psy=1 / psy_rd=1.00:0.00 / mixed_ref=1 / me_range=16 / chroma_me=1 / trellis=1 / 8x8dct=1 / cqm=0 / deadzone=21,11 / fast_pskip=1 / chroma_qp_offset=-2 / threads=10 / lookahead_threads=1 / sliced_threads=0 / nr=0 / decimate=1 / interlaced=0 / bluray_compat=0 / constrained_intra=0 / bframes=3 / b_pyramid=2 / b_adapt=1 / b_bias=0 / direct=1 / weightb=1 / open_gop=0 / weightp=2 / keyint=300 / keyint_min=30 / scenecut=40 / intra_refresh=0 / rc_lookahead=40 / rc=2pass / mbtree=1 / bitrate=718 / ratetol=1.0 / qcomp=0.60 / qpmin=0 / qpmax=69 / qpstep=4 / cplxblur=20.0 / qblur=0.5 / ip_ratio=1.40 / aq=1:1.00 Language                                 : Telugu Default                                  : Yes Forced                                   : No  Audio ID                                       : 2 Format                                   : MPEG Audio Format version                           : Version 1 Format profile                           : Layer 3 Mode                                     : Joint stereo Mode extension                           : MS Stereo Codec ID                                 : A_MPEG/L3 Codec ID/Hint                            : MP3 Duration                                 : 1 h 58 min Bit rate mode                            : Variable Bit rate                                 : 96.0 kb/s Channel(s)                               : 2 channels Sampling rate                            : 44.1 kHz Frame rate                               : 38.281 FPS (1152 spf) Compression mode                         : Lossy Stream size                              : 80.0 MiB (12%) Title                                    : www.TamilMv.Org Writing library                          : LAME3.99r Encoding settings                        : -m j -V 4 -q 3 -lowpass 15.1 --abr 96 Language                                 : Telugu Default                                  : Yes Forced                                   : No
    SINGLE DIRECT FAST LINKS
    Code:
     http://www.heroupload.com/7be9ec45cd8a94f5/Appatlo.Okadundevadu.2016.Telugu.CAMRip.700MB.x264.MP3-TMV.mkv
Working...
X