shadowbox

Collapse

Announcement

Collapse
No announcement yet.

Chuttalabbai (2016) Telugu - 1080p - WEB-HD - x264 - AAC-Exclusive

Collapse
X
  • Filter
  • Time
  • Show
Clear All
new posts

  • Chuttalabbai (2016) Telugu - 1080p - WEB-HD - x264 - AAC-Exclusive

    Code:
    General Format                                   : MPEG-4 Format profile                           : Base Media Codec ID                                 : isom (isom) File size                                : 3.23 GiB Duration                                 : 2 h 28 min Overall bit rate mode                    : Variable Overall bit rate                         : 3 110 kb/s Encoded date                             : UTC 2017-01-10 14:26:28 Tagged date                              : UTC 2017-01-10 14:26:28 Writing application                      : MkvToMp4 [www.mkvtomp4.ru] version 0.224 (x64)  Video ID                                       : 1 Format                                   : AVC Format/Info                              : Advanced Video Codec Format profile                           : [email protected] Format settings, CABAC                   : Yes Format settings, ReFrames                : 4 frames Codec ID                                 : avc1 Codec ID/Info                            : Advanced Video Coding Duration                                 : 2 h 28 min Bit rate                                 : 2 978 kb/s Nominal bit rate                         : 3 500 kb/s Maximum bit rate                         : 5 434 kb/s Width                                    : 1 920 pixels Height                                   : 1 080 pixels Display aspect ratio                     : 16:9 Frame rate mode                          : Constant Frame rate                               : 25.000 FPS Color space                              : YUV Chroma subsampling                       : 4:2:0 Bit depth                                : 8 bits Scan type                                : Progressive Bits/(Pixel*Frame)                       : 0.057 Stream size                              : 3.09 GiB (96%) Writing library                          : x264 core 146 r2538 121396c Encoding settings                        : cabac=1 / ref=2 / deblock=1:-1:-1 / analyse=0x1:0x111 / me=hex / subme=7 / psy=1 / psy_rd=1.00:0.15 / mixed_ref=1 / me_range=16 / chroma_me=1 / trellis=1 / 8x8dct=0 / cqm=0 / deadzone=21,11 / fast_pskip=1 / chroma_qp_offset=-3 / threads=36 / lookahead_threads=6 / sliced_threads=0 / nr=0 / decimate=1 / interlaced=0 / bluray_compat=0 / constrained_intra=0 / bframes=3 / b_pyramid=2 / b_adapt=1 / b_bias=0 / direct=1 / weightb=1 / open_gop=0 / weightp=2 / keyint=25 / keyint_min=13 / scenecut=0 / intra_refresh=0 / rc_lookahead=25 / rc=cbr / mbtree=1 / bitrate=3500 / ratetol=1.0 / qcomp=0.60 / qpmin=0 / qpmax=69 / qpstep=4 / vbv_maxrate=3500 / vbv_bufsize=3500 / nal_hrd=none / filler=0 / ip_ratio=1.40 / aq=1:1.00 Language                                 : English Tagged date                              : UTC 2017-01-10 14:26:46  Audio ID                                       : 2 Format                                   : AAC Format/Info                              : Advanced Audio Codec Format profile                           : LC Codec ID                                 : 40 Duration                                 : 2 h 28 min Bit rate mode                            : Variable Bit rate                                 : 128 kb/s Maximum bit rate                         : 138 kb/s Channel(s)                               : 2 channels Channel positions                        : Front: L R Sampling rate                            : 44.1 kHz Frame rate                               : 43.066 FPS (1024 spf) Compression mode                         : Lossy Stream size                              : 136 MiB (4%) Language                                 : English Default                                  : Yes Alternate group                          : 1 Encoded date                             : UTC 2017-01-10 14:26:42 Tagged date                              : UTC 2017-01-10 14:26:46
    SINGLE DIRECT FAST LINKS
    Code:
    http://www.heroupload.com/db607dc3f599d079/Chuttalabbai.2016.Telugu.1080p.HD.AVC.X264-Exclusive.mp4
    700MB LINKS
    Code:
     http://www.heroupload.com/35f3a1881aac0f2c/Chuttalabbai.2016.Telugu.1080p.HD.AVC.X264-Exclusive.mp4.001 http://www.heroupload.com/9745fb35f44f9501/Chuttalabbai.2016.Telugu.1080p.HD.AVC.X264-Exclusive.mp4.002 http://www.heroupload.com/bb2e3fac2bff26fe/Chuttalabbai.2016.Telugu.1080p.HD.AVC.X264-Exclusive.mp4.003 http://www.heroupload.com/e59ed703d71594da/Chuttalabbai.2016.Telugu.1080p.HD.AVC.X264-Exclusive.mp4.004 http://www.heroupload.com/779725c49abc0659/Chuttalabbai.2016.Telugu.1080p.HD.AVC.X264-Exclusive.mp4.005
Working...
X