shadowbox

Collapse

Announcement

Collapse
No announcement yet.

Chennai 600028 II (2016) Tamil - 700MB - 1CDRip - HDRip - x264 - MP3 - ESub-TMV

Collapse
X
  • Filter
  • Time
  • Show
Clear All
new posts

  • Chennai 600028 II (2016) Tamil - 700MB - 1CDRip - HDRip - x264 - MP3 - ESub-TMV

    Code:
    Chennai 600028 II: Second Innings (2016) Tamil HDRip - 700MB - x264 - 1CD - MP3 - ESub General Format                                   : Matroska Format version                           : Version 4 / Version 2 File size                                : 684 MiB Duration                                 : 2 h 26 min Overall bit rate mode                    : Variable Overall bit rate                         : 652 kb/s Encoded date                             : UTC 2017-01-11 15:06:46 Writing application                      : mkvmerge v7.0.0 ('Where We Going') 32bit built on Jun  9 2014 15:08:34 Writing library                          : libebml v1.3.0 + libmatroska v1.4.1  Video ID                                       : 1 Format                                   : AVC Format/Info                              : Advanced Video Codec Format profile                           : [email protected] Format settings, CABAC                   : Yes Format settings, ReFrames                : 4 frames Codec ID                                 : V_MPEG4/ISO/AVC Duration                                 : 2 h 26 min Bit rate                                 : 561 kb/s Width                                    : 720 pixels Height                                   : 304 pixels Display aspect ratio                     : 2.35:1 Frame rate mode                          : Constant Frame rate                               : 25.000 FPS Color space                              : YUV Chroma subsampling                       : 4:2:0 Bit depth                                : 8 bits Scan type                                : Progressive Bits/(Pixel*Frame)                       : 0.103 Stream size                              : 589 MiB (86%) Writing library                          : x264 core 148 r2638 7599210 Encoding settings                        : cabac=1 / ref=3 / deblock=1:0:0 / analyse=0x3:0x113 / me=hex / subme=7 / psy=1 / psy_rd=1.00:0.00 / mixed_ref=1 / me_range=16 / chroma_me=1 / trellis=1 / 8x8dct=1 / cqm=0 / deadzone=21,11 / fast_pskip=1 / chroma_qp_offset=-2 / threads=9 / lookahead_threads=1 / sliced_threads=0 / nr=0 / decimate=1 / interlaced=0 / bluray_compat=0 / constrained_intra=0 / bframes=3 / b_pyramid=2 / b_adapt=1 / b_bias=0 / direct=1 / weightb=1 / open_gop=0 / weightp=2 / keyint=250 / keyint_min=25 / scenecut=40 / intra_refresh=0 / rc_lookahead=40 / rc=2pass / mbtree=1 / bitrate=561 / ratetol=1.0 / qcomp=0.60 / qpmin=0 / qpmax=69 / qpstep=4 / cplxblur=20.0 / qblur=0.5 / ip_ratio=1.40 / aq=1:1.00 Language                                 : Tamil Default                                  : Yes Forced                                   : No  Audio ID                                       : 2 Format                                   : MPEG Audio Format version                           : Version 1 Format profile                           : Layer 3 Mode                                     : Joint stereo Mode extension                           : MS Stereo Codec ID                                 : A_MPEG/L3 Codec ID/Hint                            : MP3 Duration                                 : 2 h 26 min Bit rate mode                            : Variable Bit rate                                 : 88.8 kb/s Nominal bit rate                         : 96.0 kb/s Channel(s)                               : 2 channels Sampling rate                            : 48.0 kHz Frame rate                               : 41.667 FPS (1152 spf) Compression mode                         : Lossy Stream size                              : 93.3 MiB (14%) Writing library                          : LAME3.99r Encoding settings                        : -m j -V 4 -q 3 -lowpass 15.1 --abr 96 Language                                 : Tamil Default                                  : Yes Forced                                   : No
    SINGLE DIRECT FAST LINKS
    Code:
     http://www.heroupload.com/199cc3c3533c600c/Chennai.600028.2nd.Innings.2016.Tamil.HDRip.700MB.x264.1CD.MP3-TMV.mkv
Working...
X