shadowbox

Collapse

Announcement

Collapse
No announcement yet.

Son Of Satyamurthy 2 [Hyper] (2017) Hindi - 1080p - WEB-HD - AVC - AAC-GM Exclusive

Collapse
X
  • Filter
  • Time
  • Show
Clear All
new posts

  • Son Of Satyamurthy 2 [Hyper] (2017) Hindi - 1080p - WEB-HD - AVC - AAC-GM Exclusive

    Code:
    Format                  : MPEG-4 Format profile              : Base Media Codec ID                 : isom (isom/iso2/avc1/mp41) File size                : 2.62 GiB Duration                 : 2 h 3 min Overall bit rate mode          : Variable Overall bit rate             : 3 026 kb/s Encoded date               : UTC 2017-07-06 09:09:47 Tagged date               : UTC 2017-07-06 09:09:47  Video ID                    : 1 Format                  : AVC Format/Info               : Advanced Video Codec Format profile              : [email protected] Format settings, CABAC          : Yes Format settings, ReFrames        : 2 frames Codec ID                 : avc1 Codec ID/Info              : Advanced Video Coding Duration                 : 2 h 3 min Bit rate                 : 2 897 kb/s Width                  : 1 920 pixels Height                  : 1 080 pixels Display aspect ratio           : 16:9 Frame rate mode             : Constant Frame rate                : 25.000 FPS Color space               : YUV Chroma subsampling            : 4:2:0 Bit depth                : 8 bits Scan type                : Progressive Bits/(Pixel*Frame)            : 0.056 Stream size               : 2.50 GiB (96%) Encoded date               : UTC 2017-07-06 09:09:47 Tagged date               : UTC 2017-07-06 09:09:47 Color range               : Limited Color primaries             : BT.709 Transfer characteristics         : BT.709 Matrix coefficients           : BT.709  Audio ID                    : 2 Format                  : AAC Format/Info               : Advanced Audio Codec Format profile              : LC Codec ID                 : 40 Duration                 : 2 h 3 min Bit rate mode              : Variable Bit rate                 : 126 kb/s Channel(s)                : 2 channels Channel positions            : Front: L R Sampling rate              : 44.1 kHz Frame rate                : 43.066 FPS (1024 spf) Compression mode             : Lossy Stream size               : 111 MiB (4%) Default                 : Yes Alternate group             : 1 Encoded date               : UTC 2017-07-06 09:12:15 Tagged date               : UTC 2017-07-06 09:12:15
    SINGLE DIRECT FAST LINKS
    Code:
    http://www.heroupload.com/98697efe8dcdfd5d/Hyper.2017.1080p.Hindi.WEB.HD.AVC.AAC-Team.IcTv.Exclusive.mp4
    700MB LINKS
    Code:
     http://www.heroupload.com/5386ab6a4268cbaf/Hyper.2017.1080p.Hindi.WEB.HD.AVC.AAC-Team.IcTv.Exclusive.part1.rar http://www.heroupload.com/3da7999d967bc00a/Hyper.2017.1080p.Hindi.WEB.HD.AVC.AAC-Team.IcTv.Exclusive.part2.rar http://www.heroupload.com/115b0ff02173b94d/Hyper.2017.1080p.Hindi.WEB.HD.AVC.AAC-Team.IcTv.Exclusive.part3.rar http://www.heroupload.com/148cf262dde60205/Hyper.2017.1080p.Hindi.WEB.HD.AVC.AAC-Team.IcTv.Exclusive.part4.rar
Working...
X